Scaricare e convertire i video di YouTube con Elltube

elltube01

Elltube è un semplice programma simile a uTube, QtTube, Gvdown, Get-You e xVideoServiceThief che permette di scaricare e convertire i video dal celebre sito YouTube. Utilizza le librerie grafiche Qt quindi è consigliato installarlo su KDE ma come tutti i programmi per Linux lo potete usare anche in altri ambienti grafici. I formati di conversione video riconosciuti sono i seguenti: FLV, AVI, MPEG, MP4 e 3GP. Potete anche scegliere di salvare solo l’audio di un video, i formati audio riconosciuti sono: MP3, WAV e AMR.

Per poterlo usare scaricate ed installate il seguente pacchetto .deb: elltube_0.3-1_all.deb

Finita l’installazione lo trovate nel menù delle applicazioni sotto la voce Internet>Elltube.

Scaricare e convertire i video di YouTube con Elltubeultima modifica: 2009-05-15T08:00:00+00:00da ciaolinux
Reposta per primo quest’articolo

Un pensiero su “Scaricare e convertire i video di YouTube con Elltube

  1. quando provo a convertire un file da flv a mp3 mi da questo errore! sapete dirmi come posso risolvere?

    FFmpeg version SVN-r19352-4:0.5+svn20090706-2ubuntu2, Copyright (c) 2000-2009 Fabrice Bellard, et al.
    configuration: –extra-version=4:0.5+svn20090706-2ubuntu2 –prefix=/usr –enable-avfilter –enable-avfilter-lavf –enable-vdpau –enable-bzlib –enable-libgsm –enable-libschroedinger –enable-libspeex –enable-libtheora –enable-libvorbis –enable-pthreads –enable-zlib –disable-stripping –disable-vhook –enable-gpl –enable-postproc –enable-swscale –enable-x11grab –enable-libdc1394 –extra-cflags=-I/build/buildd/ffmpeg-0.5+svn20090706/debian/include –enable-shared –disable-static
    libavutil 49.15. 0 / 49.15. 0
    libavcodec 52.20. 0 / 52.20. 0
    libavformat 52.31. 0 / 52.31. 0
    libavdevice 52. 1. 0 / 52. 1. 0
    libavfilter 0. 4. 0 / 0. 4. 0
    libswscale 0. 7. 1 / 0. 7. 1
    libpostproc 51. 2. 0 / 51. 2. 0
    built on Oct 13 2009 22:15:16, gcc: 4.4.1

    Seems stream 0 codec frame rate differs from container frame rate: 1000.00 (1000/1) -> 25.00 (25/1)
    Input #0, flv, from ‘scusami se – 4tu.flv’:
    Duration: 00:03:38.96, start: 0.000000, bitrate: 272 kb/s
    Stream #0.0: Video: flv, yuv420p, 320×240, 264 kb/s, 25 tbr, 1k tbn, 1k tbc
    Stream #0.1: Audio: mp3, 22050 Hz, stereo, s16, 8 kb/s
    Output #0, mp3, to ‘scusami se – 4tu.mp3’:
    Stream #0.0: Audio: 0x0000, 22050 Hz, stereo, s16, 64 kb/s
    Stream mapping:
    Stream #0.1 -> #0.0
    Unsupported codec for output stream #0.0

Lascia un commento